+ ShareSpark.net »  :::: Bollywood Zone » Bollywood Movies (Original Rips)
|- Welcome To Sajjanpur (2008) Hindi 720p WEB-DL x264 AC3 5.1 ESub ~ Special26


Mastercard 10% Off
  • Welcome To Sajjanpur (2008) Hindi 720p WEB-DL x264 AC3 5.1 ESub ~ Special26 3 1
Currently:  

Welcome To Sajjanpur (2008) Hindi 720p WEB-DL x264 AC3 5.1 ESub ~ Special26

0 Members and 1 Guest are viewing this topic.

December 07, 2018, 07:08:04 PM
  • Team SSX
  • Legend Member
  • ***
  • Topic Author
  • Thank You: 4828
  • Reputation: 1033
  • Activity:
    100%
  • Country: np
  • Posts: 1577
  • Topics: 1371
  • Join Date: Jul 2016
  • Love Forever !!
Welcome To Sajjanpur (2008) Hindi 720p WEB-DL x264 AC3 5.1 ESub ~ Special26




 :info:
Format                                   : Matroska
Format version                           : Version 4 / Version 2
File size                                : 1.52 GiB
Duration                                 : 2 h 10 min
Overall bit rate                         : 1 671 kb/s



Video
ID                                       : 1
Format                                   : AVC
Format/Info                              : Advanced Video Codec
Format profile                           : [email protected]
Format settings                          : CABAC / 5 Ref Frames
Format settings, CABAC                   : Yes
Format settings, RefFrames               : 5 frames
Codec ID                                 : V_MPEG4/ISO/AVC
Duration                                 : 2 h 10 min
Bit rate                                 : 1 300 kb/s
Width                                    : 1 280 pixels
Height                                   : 720 pixels
Display aspect ratio                     : 16:9
Frame rate mode                          : Constant
Frame rate                               : 25.000 FPS


Audio
ID                                       : 2
Format                                   : AC-3
Format/Info                              : Audio Coding 3
Codec ID                                 : A_AC3
Duration                                 : 2 h 10 min
Bit rate mode                            : Constant
Bit rate                                 : 384 kb/s
Channel(s)                               : 6 channels
Channel positions                        : Front: L C R, Side: L R, LFE
Sampling rate                            : 48.0 kHz
Frame rate                               : 31.250 FPS (1536 SPF)
Bit depth                                : 16 bits
Compression mode                         : Lossy
Stream size                              : 359 MiB (23%)


Text
ID                                       : 3
Format                                   : UTF-8
Codec ID                                 : S_TEXT/UTF8
Codec ID/Info                            : UTF-8 Plain Text
Duration                                 : 2 h 6 min
Bit rate                                 : 83 b/s
Count of elements                        : 2009
Stream size                              : 77.2 KiB (0%)
Language                                 : English
Default                                  : Yes
Forced                                   : Yes
Credit to Sun George.



 :ss:






 :download:


Share this topic on FacebookShare this topic on GoogleShare this topic on MySpaceShare this topic on TwitterShare this topic on Yahoo




Tags:
 

Related Topics





Back to top